<?xml version="1.0" standalone="no"?>
<!DOCTYPE svg PUBLIC "-//W3C//DTD SVG 1.1//EN" "http://www.w3.org/Graphics/SVG/1.1/DTD/svg11.dtd">
<svg xmlns="http://www.w3.org/2000/svg">
<defs >
<font id="CroissantOne" horiz-adv-x="612" ><font-face
    font-family="Croissant One"
    units-per-em="1000"
    panose-1="2 0 5 3 8 0 0 2 0 4"
    ascent="1071"
    descent="-344"
    alphabetic="0" />
<glyph unicode=" " glyph-name="space" horiz-adv-x="300" />
<glyph unicode="!" glyph-name="exclam" horiz-adv-x="358" d="M102 30T102 62T124 116T179 139T233 117T256 62T234 8T179 -15T125 7ZM117 469T109 538T100 638T121 692T179 715T236 693T258 639T250 538T227 369T206 203H152Q145 268 131 368Z" />
<glyph unicode="&quot;" glyph-name="quotedbl" horiz-adv-x="512" d="M100 611T93 646T85 703T104 745T156 765T208 745T227 704T220 647T199 558T180 475H132Q126 505 113 558ZM300 611T293 646T285 703T304 745T356 765T408 745T427 704T420 647T399 558T380
475H332Q326 505 313 558Z" />
<glyph unicode="#" glyph-name="numbersign" horiz-adv-x="742" d="M114 420L132 480H262L331 700H391L322 480H502L571 700H631L562 480H692L673 420H543L499 280H629L610 220H480L411 0H351L420 220H240L171 0H111L180 220H50L69 280H199L243 420H114ZM303 420L259
280H439L483 420H303Z" />
<glyph unicode="$" glyph-name="dollar" horiz-adv-x="650" d="M330 800V715Q411 715 476 678T542 574Q542 544 521 523T470 502T419 523T398 571T412 617T449 643Q401 668 330 668V423L421 375Q566 299 566 175Q566 84 500 36T330 -15V-100H300V-14Q213 -10 149
32T84 146Q84 176 105 197T156 218T207 197T228 146T209 96T161 74Q207 36 300 32V278L225 318Q97 387 97 515Q97 591 147 647T300 713V800H330ZM446 138Q446 199 373 239L330 262V32Q384 36 415 64T446 138ZM220 563Q220 479 300 439V664Q260 654 240 625T220
563Z" />
<glyph unicode="%" glyph-name="percent" horiz-adv-x="1044" d="M737 700L347 0H307L697 700H737ZM90 581T134 645T251 709T368 645T413 487T369 329T251 266T134 329T90 487ZM315 569T299 620T252 672T204 621T188 487T204 354T251 303T299 354T315 487ZM631
306T675 370T792 434T909 370T954 212T910 54T792 -9T675 54T631 212ZM856 294T840 345T793 397T745 346T729 212T745 79T792 28T840 79T856 212Z" />
<glyph unicode="&amp;" glyph-name="ampersand" horiz-adv-x="637" d="M109 -15T70 30T30 150T76 277T207 329H219Q148 471 148 545Q148 715 372 715Q442 715 504 683T566 607Q566 590 555 568L507 476L472 487V571Q472 616 442 642T367 668T300 646T276 593Q276
552 318 468Q329 446 336 430T360 383T387 329H555V284H409L500 98Q522 53 558 53T629 82L647 58Q567 -15 477 -15Q429 -15 396 9T326 113Q311 56 271 21T170 -15ZM168 224T168 173T183 89T230 56T279 88T298 171L242 284H238Q203 284 186 254Z" />
<glyph unicode="&apos;" glyph-name="quotesingle" horiz-adv-x="312" d="M100 611T93 646T85 703T104 745T156 765T208 745T227 704T220 647T199 558T180 475H132Q126 505 113 558Z" />
<glyph unicode="(" glyph-name="parenleft" horiz-adv-x="414" d="M205 510T205 351T254 97T398 -24V-47Q244 -47 152 53T60 351T152 648T398 749V726Q304 700 255 605Z" />
<glyph unicode=")" glyph-name="parenright" horiz-adv-x="414" d="M209 192T209 351T160 605T16 726V749Q170 749 262 649T354 351T262 54T16 -47V-24Q110 2 159 97Z" />
<glyph unicode="*" glyph-name="asterisk" horiz-adv-x="577" d="M262 562Q220 671 220 695T238 742T289 765T339 743T358 691Q358 675 339 624T315 561L322 556Q336 566 356 582T388 606T413 624Q439 641 461 641T505 623T527 572T501 520T437 502L339 505L336
497Q350 487 376 470T413 445T438 424Q462 402 462 375T443 326T403 305T372 307T352 319T338 334T326 358T316 386Q307 416 293 465H284Q279 449 272 424T262 388T252 359T241 335T226 320Q212 305 183 305T135 326T116 367T120 399T139 424T162 444T199 469T240
497L237 506L140 503Q102 503 76 520T50 571T72 623T121 641Q141 641 160 628T189 608T220 584T254 557L262 562Z" />
<glyph unicode="+" glyph-name="plus" horiz-adv-x="560" d="M90 320V380H250V540H310V380H470V320H310V160H250V320H90Z" />
<glyph unicode="," glyph-name="comma" horiz-adv-x="274" d="M67 -144Q111 -93 111 -56T86 3T60 59T82 116T137 139T192 114T214 46Q214 -66 94 -169L67 -144Z" />
<glyph unicode="-" glyph-name="hyphen" horiz-adv-x="400" d="M50 252V312H350V252H50Z" />
<glyph unicode="." glyph-name="period" horiz-adv-x="274" d="M60 30T60 62T82 116T137 139T191 117T214 62T192 8T137 -15T83 7Z" />
<glyph unicode="/" glyph-name="slash" horiz-adv-x="410" d="M380 700L120 0H30L290 700H380Z" />
<glyph unicode="0" glyph-name="zero" horiz-adv-x="600" d="M36 504T109 609T300 715T491 610T564 349T491 90T300 -15T109 90T36 349ZM358 674T300 674T212 583T181 350T211 117T300 26T388 117T419 349T389 582Z" />
<glyph unicode="1" glyph-name="one" horiz-adv-x="472" d="M342 700V40H472V0H42V40H192V577Q99 538 0 538V578Q92 578 171 612T298 700H342Z" />
<glyph unicode="2" glyph-name="two" horiz-adv-x="600" d="M466 0H42V40L277 278Q380 382 380 498Q380 569 340 616T237 663Q192 663 158 649Q181 641 196 621T211 571T187 518T130 494T74 517T51 574Q51 638 118 676T287 715T453 662T518 530Q518 470 480 418T339
268L156 92H322Q386 92 415 110T454 174L461 210H500L527 42Q527 22 518 13T499 2T466 0Z" />
<glyph unicode="3" glyph-name="three" horiz-adv-x="600" d="M196 641T211 621T226 571T203 518T146 494T90 517T66 574Q66 639 135 677T307 715T471 662T533 530Q533 472 496 426T394 354Q464 331 503 287T543 190Q543 103 470 44T278 -15Q189 -15 123 22T56
126Q56 159 79 182T136 206T192 182T216 129T200 78T158 49Q185 37 222 37Q303 37 345 82T388 188T348 291T232 333H178V375H247Q321 375 359 421T398 525T361 623T252 663Q207 663 173 649Q196 641 211 621Z" />
<glyph unicode="4" glyph-name="four" horiz-adv-x="600" d="M349 700Q349 559 268 426T80 209H324V410Q409 446 430 515H474V209H534V159H474V40H594V0H194V40H324V159H17V209Q114 300 148 450Q175 571 179 700H349Z" />
<glyph unicode="5" glyph-name="five" horiz-adv-x="600" d="M456 700Q478 700 488 699T508 688T517 658L490 490H451L442 536Q432 582 403 600T310 618H174L158 395Q213 415 262 415Q390 415 469 353T548 200T475 47T283 -15Q194 -15 128 22T61 126Q61 159 84
182T141 206T197 182T221 129T205 78T163 49Q190 37 227 37Q308 37 350 85T393 200T351 315T236 363T123 335L98 364L121 700H456Z" />
<glyph unicode="6" glyph-name="six" horiz-adv-x="600" d="M413 484T390 508T366 561T382 612T425 641Q391 675 338 675Q199 675 196 358Q239 425 331 425T485 362T547 207T481 50T304 -15Q59 -15 59 339Q59 509 136 612T337 715Q424 715 475 667T526 564Q526
531 503 508T446 484ZM412 277T385 325T305 374T223 329T194 207T222 79T302 26T383 75T412 200Z" />
<glyph unicode="7" glyph-name="seven" horiz-adv-x="518" d="M294 181T308 133T323 58T300 9T242 -15T186 12T163 78T172 164T204 279T275 429T391 584L422 618H237Q173 618 144 600T105 536L96 490H57L30 658Q30 678 39 687T58 698T91 700H505V660Q294 421 294
225Q294 181 308 133Z" />
<glyph unicode="8" glyph-name="eight" horiz-adv-x="600" d="M497 654T519 617T541 527T505 427T410 355Q478 331 519 284T561 180Q561 84 484 35T300 -15Q205 -15 126 28Q87 50 63 89T39 182T80 283T189 355Q131 380 95 427T59 533T96 636Q163 715 300 715Q388
715 460 674Q497 654 519 617ZM411 170Q411 284 280 325Q189 283 189 170Q189 109 219 68T300 27T381 68T411 170ZM406 540Q406 592 378 632T300 673T222 634T194 540Q194 411 320 381Q406 411 406 540Z" />
<glyph unicode="9" glyph-name="nine" horiz-adv-x="600" d="M179 216T203 192T227 139T212 88T171 59Q208 25 265 25Q335 25 373 93T411 300Q411 307 411 326T410 352Q362 275 256 275Q171 275 114 334T56 489T122 650T299 715Q426 715 485 620T544 358T467 88T266
-15Q182 -15 125 26T67 136Q67 169 90 192T146 216ZM191 423T218 375T298 326T380 371T409 493T381 621T301 674T220 625T191 500Z" />
<glyph unicode=":" glyph-name="colon" horiz-adv-x="274" d="M60 30T60 62T82 116T137 139T191 117T214 62T192 8T137 -15T83 7ZM60 390T60 422T82 476T137 499T191 477T214 422T192 368T137 345T83 367Z" />
<glyph unicode=";" glyph-name="semicolon" horiz-adv-x="274" d="M67 -144Q111 -93 111 -56T86 3T60 59T82 116T137 139T192 114T214 46Q214 -66 94 -169L67 -144ZM60 390T60 422T82 476T137 499T191 477T214 422T192 368T137 345T83 367Z" />
<glyph unicode="&lt;" glyph-name="less" horiz-adv-x="560" d="M90 320V380L470 540V480L161 350L470 220V160L90 320Z" />
<glyph unicode="=" glyph-name="equal" horiz-adv-x="560" d="M90 220V280H470V220H90ZM90 420V480H470V420H90Z" />
<glyph unicode="&gt;" glyph-name="greater" horiz-adv-x="560" d="M470 380V320L90 160V220L399 350L90 480V540L470 380Z" />
<glyph unicode="?" glyph-name="question" horiz-adv-x="527" d="M276 363T309 411T342 519T307 620T206 663Q174 663 149 652Q176 645 193 624T210 572T186 518T129 494T73 517T50 574Q50 641 113 678T267 715T417 662T477 531T425 397T283 319L269 203H215L198
349Q276 363 309 411ZM165 30T165 62T187 116T242 139T296 117T319 62T297 8T242 -15T188 7Z" />
<glyph unicode="@" glyph-name="at" horiz-adv-x="1054" d="M527 -198Q437 -198 354 -163T211 -67T116 76T80 249T115 422T211 565T354 660T527 696T700 661T843 565T938 422T974 263T955 136T903 56Q838 -3 758 -3Q707 -3 667 22T615 93H605Q553 22 468 22T335
87T286 250T341 411T496 476Q567 476 608 430L632 465H740V143Q740 102 756 80T803 58Q847 58 885 108T923 249Q923 412 807 528T527 645T248 529T131 249T247 -30T527 -147Q635 -147 728 -92L751 -136Q646 -198 527 -198ZM429 326T429 250T450 129T516 84Q541
84 563 99T597 139V368Q586 390 563 402T516 415Q472 415 451 371Z" />
<glyph unicode="A" glyph-name="A" horiz-adv-x="656" d="M169 660V700H407L606 40H656V0H398V40H456L419 163H147L111 40H169V0H0V40H50L237 660H169ZM282 617L161 208H405L282 617Z" />
<glyph unicode="B" glyph-name="B" horiz-adv-x="708" d="M70 660V700H310Q623 700 623 510Q623 378 468 338V331Q653 303 653 179Q653 89 571 45T340 0H70V40H130V660H70ZM330 313H280V40H330Q402 40 450 76T498 176T450 277T330 313ZM309 660H280V351H309Q380
351 426 393T473 508T427 620T309 660Z" />
<glyph unicode="C" glyph-name="C" horiz-adv-x="650" d="M382 668Q295 668 250 579T205 355T252 136T389 51Q439 51 481 72T544 116T590 174L625 149Q577 72 518 29T365 -15Q226 -15 138 90T50 351T138 611T382 715Q463 715 538 683T613 607Q613 590 602 568L542
452L506 463L515 525Q519 549 519 571Q519 610 481 639T382 668Z" />
<glyph unicode="D" glyph-name="D" horiz-adv-x="782" d="M70 700H340Q520 700 631 603T742 351T631 98T340 0H70V40H150V660H70V700ZM340 660H300V40H340Q456 40 521 123T587 350T522 576T340 660Z" />
<glyph unicode="E" glyph-name="E" horiz-adv-x="630" d="M519 0H70V40H130V660H70V700H499Q521 700 531 699T551 688T560 658L533 490H494L474 589Q465 634 441 647T350 660H280V318H510V273H280V40H370Q435 40 459 53T494 111L514 200H553L580 42Q580 22 571
13T552 2T519 0Z" />
<glyph unicode="F" glyph-name="F" horiz-adv-x="570" d="M350 660H280V318H490V273H280V40H390V0H70V40H130V660H70V700H499Q521 700 531 699T551 688T560 658L533 490H494L474 589Q465 634 441 647T350 660Z" />
<glyph unicode="G" glyph-name="G" horiz-adv-x="700" d="M350 273V318H635V-22Q635 -132 569 -184T391 -237Q325 -237 265 -204T204 -112Q204 -101 211 -80L245 8Q157 47 104 140T50 349Q50 507 140 611T392 715Q473 715 548 683T623 607Q623 590 612 568L556
476L520 488L525 525Q529 549 529 571Q529 610 491 639T392 668Q300 668 253 579T205 355T256 136T407 51Q447 51 485 67V273H350ZM355 -15Q320 -15 288 -6V-37Q288 -151 336 -178Q358 -190 396 -190T460 -163T485 -80V11Q425 -15 355 -15Z" />
<glyph unicode="H" glyph-name="H" horiz-adv-x="810" d="M680 660V40H740V0H470V40H530V273H280V40H340V0H70V40H130V660H70V700H340V660H280V318H530V660H470V700H740V660H680Z" />
<glyph unicode="I" glyph-name="I" horiz-adv-x="410" d="M60 660V700H350V660H280V40H350V0H60V40H130V660H60Z" />
<glyph unicode="J" glyph-name="J" horiz-adv-x="535" d="M415 660V190Q415 85 352 35T181 -15Q120 -15 65 17T10 93Q10 110 21 132L81 248L117 237L108 175Q104 140 104 109T125 55T183 32T242 57T265 132V660H170V700H475V660H415Z" />
<glyph unicode="K" glyph-name="K" horiz-adv-x="685" d="M70 660V700H340V660H280V355L493 700H652V660H597L307 335H372Q500 335 529 238L571 98Q578 73 589 63T626 53T687 82L705 58Q625 -15 535 -15Q489 -15 461 1T421 57L362 251Q354 279 337 290T280 303V40H340V0H70V40H130V660H70Z"
/>
<glyph unicode="L" glyph-name="L" horiz-adv-x="570" d="M70 660V700H340V660H280V40H350Q416 40 440 53T474 111L494 210H533L560 42Q560 22 551 13T532 2T499 0H70V40H130V660H70Z" />
<glyph unicode="M" glyph-name="M" horiz-adv-x="908" d="M48 660V700H269L451 101L623 700H850V660H782L818 40H878V0H610V40H667L636 535L482 0H331L168 534L140 40H198V0H20V40H80L115 660H48Z" />
<glyph unicode="N" glyph-name="N" horiz-adv-x="770" d="M60 0V40H120V660H60V700H294L580 137V660H520V700H710V660H650V0H491L190 592V40H250V0H60Z" />
<glyph unicode="O" glyph-name="O" horiz-adv-x="768" d="M50 508T136 611T383 715T631 612T718 350T631 88T384 -15T137 87T50 349ZM384 668Q325 668 284 622Q205 536 205 349Q205 163 284 78Q326 32 384 32Q470 32 516 124T563 349T517 575T384 668Z" />
<glyph unicode="P" glyph-name="P" horiz-adv-x="658" d="M70 660V700H290Q536 700 598 582Q623 536 623 470T599 358T527 287Q439 240 290 240H280V40H360V0H70V40H130V660H70ZM290 660H280V280H290Q369 280 421 330T473 470T421 610T290 660Z" />
<glyph unicode="Q" glyph-name="Q" horiz-adv-x="768" d="M50 508T136 611T383 715T631 612T718 349Q718 219 659 125T488 -1L501 -71Q511 -129 561 -129Q588 -129 631 -90L658 -114Q635 -140 618 -155T573 -183T514 -197Q392 -197 365 -50L358 -14Q210 -5 130
96T50 352ZM384 668Q325 668 284 622Q205 536 205 349Q205 275 218 216Q272 261 333 261Q440 261 467 114L475 69Q518 109 540 184T563 349Q563 483 517 575T384 668ZM295 193T274 193T229 175Q267 59 349 36L331 135Q327 162 311 177Z" />
<glyph unicode="R" glyph-name="R" horiz-adv-x="695" d="M70 660V700H290Q533 700 598 588Q623 544 623 481Q623 335 457 285Q520 264 541 198L571 98Q578 73 589 63T626 53T687 82L705 58Q625 -15 535 -15Q489 -15 461 1T421 57L374 211Q365 240 346 251T280
263V40H360V0H70V40H130V660H70ZM290 660H280V303H290Q369 303 421 349T473 481T421 613T290 660Z" />
<glyph unicode="S" glyph-name="S" horiz-adv-x="570" d="M139 129Q139 90 177 61T275 32T370 61T405 138Q405 199 332 239L184 318Q56 387 56 515Q56 597 116 656T295 715Q375 715 447 683T519 607Q519 590 508 568L460 476L425 487V571Q425 616 386 642T292
668T208 636T179 563Q179 481 253 442L380 375Q525 299 525 175Q525 81 455 33T276 -15Q195 -15 120 17T45 93Q45 110 56 132L104 224L139 213V129Z" />
<glyph unicode="T" glyph-name="T" horiz-adv-x="620" d="M395 660H385V40H485V0H135V40H235V660H225Q159 660 135 647T101 589L81 490H42L15 658Q15 678 24 687T43 698T76 700H544Q566 700 576 699T596 688T605 658L578 490H539L519 589Q510 634 486 647T395 660Z" />
<glyph unicode="U" glyph-name="U" horiz-adv-x="700" d="M485 660V700H675V660H615V241Q615 169 594 117T534 37Q463 -15 357 -15Q251 -15 178 38Q139 65 117 117T95 242V660H35V700H305V660H245V210Q245 132 287 90T390 48T498 90T545 210V660H485Z" />
<glyph unicode="V" glyph-name="V" horiz-adv-x="685" d="M25 660V700H236L271 165Q278 63 364 63Q428 63 475 111Q567 205 567 390Q567 493 531 573Q513 613 484 625T407 638H369L363 675L467 710Q484 715 497 715T519 711Q555 696 590 620T625 414Q625 248 554
121Q520 59 462 22T328 -15Q218 -15 171 44T115 225L87 660H25Z" />
<glyph unicode="W" glyph-name="W" horiz-adv-x="1057" d="M25 660V700H236L271 165Q278 63 364 63Q457 63 512 173Q509 189 507 225L479 660H417V700H628L663 165Q670 63 756 63Q813 63 856 111Q939 205 939 390Q939 493 903 573Q885 613 856 625T779 638H741L735
675L839 710Q856 715 869 715T891 711Q927 696 962 620T997 414Q997 246 932 121Q899 59 845 22T720 -15Q575 -15 531 97Q455 -15 328 -15Q218 -15 171 44T115 225L87 660H25Z" />
<glyph unicode="X" glyph-name="X" horiz-adv-x="696" d="M35 0V40H85L275 321L98 660H45V700H244L376 448L493 700H647V660H597L410 383L560 98Q573 72 585 63T616 53Q650 53 679 82L701 58Q639 -15 546 -15Q499 -15 467 0T414 57L308 258L189 0H35Z" />
<glyph unicode="Y" glyph-name="Y" horiz-adv-x="607" d="M135 0V40H235V250L53 660H5V700H203L361 308L451 700H602V660H555L385 250V40H485V0H135Z" />
<glyph unicode="Z" glyph-name="Z" horiz-adv-x="590" d="M499 0H30V40L393 660H260Q194 660 170 647T136 589L116 490H77L50 658Q50 678 59 687T78 698T111 700H555V660L199 40H350Q415 40 439 53T474 111L494 200H533L560 42Q560 22 551 13T532 2T499 0Z" />
<glyph unicode="[" glyph-name="bracketleft" horiz-adv-x="434" d="M275 604V96Q275 43 304 22T398 0L404 -23Q342 -50 277 -50T171 -19T130 74V626Q130 687 170 718T276 750T404 723L398 700Q333 700 304 679T275 604Z" />
<glyph unicode="\" glyph-name="backslash" horiz-adv-x="410" d="M290 0L30 700H120L380 0H290Z" />
<glyph unicode="]" glyph-name="bracketright" horiz-adv-x="434" d="M159 96V604Q159 657 130 678T36 700L30 723Q92 750 157 750T263 719T304 626V74Q304 13 264 -18T158 -50T30 -23L36 0Q101 0 130 21T159 96Z" />
<glyph unicode="^" glyph-name="asciicircum" horiz-adv-x="560" d="M245 700H315L465 440H400L280 649L160 440H95L245 700Z" />
<glyph unicode="_" glyph-name="underscore" horiz-adv-x="594" d="M75 -60V0H519V-60H75Z" />
<glyph unicode="`" glyph-name="grave" horiz-adv-x="371" d="M27 736T43 750T79 765T112 758T134 743T160 715L279 583L258 559L110 632Q63 655 45 672T27 713Z" />
<glyph unicode="a" glyph-name="a" horiz-adv-x="710" d="M597 500V111Q597 84 610 69T650 53T712 82L730 58Q650 -15 570 -15Q475 -15 453 74Q401 -15 300 -15Q185 -15 125 59T65 249T129 440T310 515Q399 515 447 444V500H597ZM220 346T220 250T248 98T333 42T421
98T452 250T422 401T334 458T248 402Z" />
<glyph unicode="b" glyph-name="b" horiz-adv-x="708" d="M261 704V436Q314 515 408 515Q523 515 583 441T643 251T579 60T398 -15Q309 -15 261 56V0H111V717Q56 703 27 668L0 699Q29 729 73 747T161 765T233 748T261 704ZM488 154T488 250T460 402T375 458T287
402T256 250T286 99T374 42T460 98Z" />
<glyph unicode="c" glyph-name="c" horiz-adv-x="562" d="M331 -15Q212 -15 139 61T65 250T138 438T330 515Q396 515 459 477T522 374Q522 341 499 318T442 294T386 317T362 371T378 422T420 451Q392 463 356 463Q289 463 255 404T220 253T254 104T356 47Q446
47 509 122L537 104Q504 50 451 18T331 -15Z" />
<glyph unicode="d" glyph-name="d" horiz-adv-x="710" d="M597 704V111Q597 84 610 69T647 53T707 82L730 58Q650 -15 570 -15Q475 -15 453 74Q401 -15 300 -15Q185 -15 125 59T65 249T129 440T310 515Q399 515 447 444V717Q392 703 363 668L336 699Q365 729 409
747T497 765T569 748T597 704ZM220 346T220 250T248 98T333 42T421 98T452 250T422 401T334 458T248 402Z" />
<glyph unicode="e" glyph-name="e" horiz-adv-x="597" d="M339 237T374 280T410 368T391 437T332 461T256 405T220 255T254 104T351 47Q447 47 514 122L542 104Q508 50 452 18T326 -15Q207 -15 136 63T65 253T140 439T350 515Q438 515 488 474T538 370T483 254T336
200Q305 200 276 207L274 231Q339 237 374 280Z" />
<glyph unicode="f" glyph-name="f" horiz-adv-x="424" d="M39 445V486H121V587Q121 666 166 715T311 765Q360 765 404 747T478 699L451 668Q408 705 355 705Q271 705 271 595V486H384V445H271V-132H121V445H39Z" />
<glyph unicode="g" glyph-name="g" horiz-adv-x="620" d="M419 -132H234Q87 -132 87 -9Q87 58 161 142Q80 201 80 305Q80 394 145 454T315 515Q391 515 450 480Q493 519 509 582L548 572Q530 502 482 456Q550 394 550 305T485 156T315 95Q243 95 190 124Q155 75
155 50Q155 0 213 0H398Q545 0 545 -108Q545 -185 472 -265L448 -242Q477 -207 477 -183T462 -145T419 -132ZM235 379T235 305T255 184T316 137T376 184T397 305T377 426T316 473T256 426Z" />
<glyph unicode="h" glyph-name="h" horiz-adv-x="694" d="M261 704V447Q296 485 336 500T439 515T541 476T581 368V111Q581 84 594 69T634 53T696 82L714 58Q634 -15 554 -15Q431 -15 431 132V389Q431 420 412 437T359 454T293 426T261 353V0H111V717Q56 703 27
668L0 699Q29 729 73 747T161 765T233 748T261 704Z" />
<glyph unicode="i" glyph-name="i" horiz-adv-x="399" d="M131 637T131 670T154 726T211 750T267 727T291 670T268 614T211 590T155 613ZM192 515Q286 515 286 434V111Q286 84 299 69T339 53T401 82L419 58Q339 -15 259 -15Q136 -15 136 132V467Q81 453 52 418L25
449Q54 479 98 497T192 515Z" />
<glyph unicode="j" glyph-name="j" horiz-adv-x="383" d="M290 454V-87Q290 -166 245 -215T100 -265Q51 -265 7 -247T-67 -199L-45 -168Q-2 -205 56 -205Q140 -205 140 -95V467Q85 453 56 418L29 449Q58 479 102 497T190 515T262 498T290 454ZM135 637T135 670T158
726T215 750T271 727T295 670T272 614T215 590T159 613Z" />
<glyph unicode="k" glyph-name="k" horiz-adv-x="647" d="M261 704V445Q315 515 427 515Q491 515 531 483T571 403T542 316T463 254L523 98Q533 72 543 63T571 53Q604 53 639 82L657 58Q577 -15 492 -15T378 57L303 249Q358 262 394 303T431 382T412 437T364 454Q316
454 289 416T261 310V0H111V717Q56 703 27 668L0 699Q29 729 73 747T161 765T233 748T261 704Z" />
<glyph unicode="l" glyph-name="l" horiz-adv-x="374" d="M29 729T73 747T161 765T233 748T261 704V111Q261 84 274 69T314 53T376 82L394 58Q314 -15 234 -15Q111 -15 111 132V717Q56 703 27 668L0 699Q29 729 73 747Z" />
<glyph unicode="m" glyph-name="m" horiz-adv-x="1007" d="M30 482Q73 500 122 500T204 488T272 450Q308 486 345 500T434 515Q536 515 570 437Q609 480 648 497T751 515T854 476T894 368V111Q894 84 907 69T947 53T1009 82L1027 58Q947 -15 867 -15Q744 -15 744
132V389Q744 420 726 437T677 454T615 427T584 357V0H434V389Q434 420 416 437T367 454T305 427T274 357V0H124V460Q79 460 44 445L30 482Z" />
<glyph unicode="n" glyph-name="n" horiz-adv-x="707" d="M124 500Q206 500 272 450Q310 486 350 500T452 515T554 476T594 368V111Q594 84 607 69T647 53T709 82L727 58Q647 -15 567 -15Q444 -15 444 132V389Q444 420 425 437T373 454T307 427T274 357V0H124V460Q79
460 44 445L30 482Q73 500 124 500Z" />
<glyph unicode="o" glyph-name="o" horiz-adv-x="660" d="M65 138T65 250T138 438T330 515T521 439T595 250T522 62T330 -15T139 61ZM220 348T220 250T248 90T331 27T414 89T442 250T414 410T331 473T248 411Z" />
<glyph unicode="p" glyph-name="p" horiz-adv-x="721" d="M124 500Q216 500 283 449Q336 515 421 515Q536 515 596 441T656 251T592 60T411 -15Q325 -15 274 62V-250H124V460Q79 460 44 445L30 482Q73 500 124 500ZM501 154T501 250T473 402T388 458T300 402T269
250T299 99T387 42T473 98Z" />
<glyph unicode="q" glyph-name="q" horiz-adv-x="697" d="M597 -250H447V64Q394 -15 300 -15Q185 -15 125 59T65 249T129 440T310 515Q399 515 447 444V500H597V-250ZM220 346T220 250T248 98T333 42T421 98T452 250T422 401T334 458T248 402Z" />
<glyph unicode="r" glyph-name="r" horiz-adv-x="536" d="M393 515Q423 515 423 458V111Q423 84 436 69T476 53T538 82L556 58Q476 -15 396 -15Q273 -15 273 132V413Q226 394 159 387Q151 295 106 203L65 215Q93 286 95 384Q57 384 34 406T10 460T32 515T87 538T142
515T164 456H183Q262 456 351 500Q380 515 393 515Z" />
<glyph unicode="s" glyph-name="s" horiz-adv-x="474" d="M175 418Q151 455 151 484T173 535T228 558T282 536T305 482T274 416Q356 356 400 299T444 166T387 38T225 -15Q177 -15 129 6T55 58L78 82Q122 47 173 47T256 74T289 160Q289 252 221 352L70 163L45 185Q121
308 175 418Z" />
<glyph unicode="t" glyph-name="t" horiz-adv-x="424" d="M39 445V486H121V630H271V486H384V445H271V111Q271 84 284 69T324 53T386 82L404 58Q324 -15 244 -15Q121 -15 121 132V445H39Z" />
<glyph unicode="u" glyph-name="u" horiz-adv-x="707" d="M274 454V111Q274 80 293 63T346 46T412 74T444 147V500H594V111Q594 84 607 69T647 53T709 82L727 58Q647 -15 564 -15T454 59Q415 18 374 2T268 -15T164 24T124 132V467Q69 453 40 418L13 449Q42 479
86 497T174 515T246 498T274 454Z" />
<glyph unicode="v" glyph-name="v" horiz-adv-x="619" d="M368 416T368 448T390 502T447 525T505 500T540 432Q559 359 559 289T542 167T498 83T438 27Q376 -15 315 -15Q230 -15 181 27T131 152V467Q76 453 47 418L20 449Q49 479 93 497T181 515T253 498T281 454V121Q281
89 301 73T351 56Q414 56 460 121T506 282Q506 330 487 383Q469 371 441 371T391 393Z" />
<glyph unicode="w" glyph-name="w" horiz-adv-x="944" d="M606 454V121Q606 89 626 73T676 56Q739 56 785 121T831 282Q831 330 812 383Q794 371 766 371T716 393T693 448T715 502T772 525T830 500T866 432Q884 359 884 289T867 167T823 83T762 27Q701 -15 640
-15Q521 -15 476 63Q443 25 398 5T315 -15Q230 -15 181 27T131 152V467Q76 453 47 418L20 449Q49 479 93 497T181 515T253 498T281 454V121Q281 89 301 73T351 56Q419 56 457 123Q456 132 456 152V467Q401 453 372 418L345 449Q374 479 418 497T506 515T578 498T606
454Z" />
<glyph unicode="x" glyph-name="x" horiz-adv-x="649" d="M53 30T53 62T75 116T127 139T177 123T205 81Q248 123 272 198L175 402Q162 428 153 437T126 447Q92 447 59 418L40 442Q117 515 201 515T319 443L362 352Q389 424 432 469T530 515Q562 515 584 493T607
438T585 384T532 361T482 377T455 419Q411 376 387 300L484 98Q497 72 506 63T533 53Q567 53 600 82L619 58Q542 -15 458 -15T340 57L297 146Q270 74 228 30T133 -15Q99 -15 76 7Z" />
<glyph unicode="y" glyph-name="y" horiz-adv-x="627" d="M42 479T86 497T174 515T246 498T274 454V151Q274 119 294 103T344 86Q408 86 453 141T499 282Q499 330 480 383Q462 371 434 371T384 393T361 448T383 502T440 525T498 500T534 432Q552 359 552 271T532
93T478 -60T402 -171Q316 -265 227 -265Q203 -265 188 -255T152 -216L100 -144L126 -117Q174 -125 210 -125Q322 -125 393 -54T505 177Q443 5 277 5Q213 5 169 48T124 172V467Q69 453 40 418L13 449Q42 479 86 497Z" />
<glyph unicode="z" glyph-name="z" horiz-adv-x="620" d="M489 0H75V40L383 460H300Q234 460 210 447T176 389L156 290H117L90 458Q90 478 99 487T118 498T151 500H545V460L244 40H340Q406 40 430 53T464 111L484 210H523L550 42Q550 22 541 13T522 2T489 0Z" />
<glyph unicode="{" glyph-name="braceleft" horiz-adv-x="432" d="M273 214V96Q273 43 302 22T396 0L402 -23Q340 -50 275 -50T169 -19T128 74Q128 107 142 176T157 271T148 309T120 326Q97 332 50 334V366Q97 368 118 373Q157 384 157 419T143 524T128 626Q128
687 168 718T274 750T402 723L396 700Q331 700 302 679T273 604V486Q273 434 251 397T195 350Q229 340 251 303T273 214Z" />
<glyph unicode="|" glyph-name="bar" horiz-adv-x="410" d="M260 800V-100H150V800H260Z" />
<glyph unicode="}" glyph-name="braceright" horiz-adv-x="432" d="M159 486V604Q159 657 130 678T36 700L30 723Q92 750 157 750T263 719T304 626Q304 593 290 524T275 429T284 391T312 374Q335 368 382 366V334Q335 332 314 327Q275 316 275 281T289 176T304
74Q304 13 264 -18T158 -50T30 -23L36 0Q101 0 130 21T159 96V214Q159 266 181 303T237 350Q203 360 181 397T159 486Z" />
<glyph unicode="~" glyph-name="asciitilde" horiz-adv-x="560" d="M90 380Q126 362 166 362T279 379T392 397T470 380V320Q433 339 393 339T279 320T165 301T90 320V380Z" />
<glyph unicode="&#xa0;" glyph-name="nbspace" horiz-adv-x="300" />
<glyph unicode="&#xa1;" glyph-name="exclamdown" horiz-adv-x="358" d="M102 406T102 438T124 492T179 515T233 493T256 438T234 384T179 361T125 383ZM241 31T249 -38T258 -138T237 -192T179 -215T122 -193T100 -139T108 -38T131 131T152 297H206Q213 232 227 132Z" />
<glyph unicode="&#xa2;" glyph-name="cent" horiz-adv-x="650" d="M353 85V-100H323V86Q217 97 153 171T89 350T153 528T323 613V800H353V615Q394 615 437 600T513 552T546 481T525 423T474 402T423 423T402 472T417 519T458 544Q423 563 380 563Q365 563 353
560V150Q365 147 380 147Q471 147 533 222L561 204Q528 150 474 118T353 85ZM244 350Q244 283 264 233T323 161V548Q244 503 244 350Z" />
<glyph unicode="&#xa3;" glyph-name="sterling" horiz-adv-x="650" d="M75 309V354H150Q147 364 132 403Q105 473 105 530Q105 608 164 661T320 715Q448 715 515 655Q552 622 552 574Q552 541 529 518T472 494T415 515T392 569T407 621T447 650Q414 663 376 663Q317
663 284 623T250 518Q250 487 256 430T264 354H455V309H265Q263 198 180 92H365Q428 92 458 110T497 174L504 210H543L570 42Q570 22 561 13T542 2T509 0H75V40Q166 133 166 259Q166 282 161 309H75Z" />
<glyph unicode="&#xa4;" glyph-name="currency" horiz-adv-x="650" d="M155 228Q119 283 119 351T156 471L64 563L112 611L204 519Q256 555 324 555T446 519L538 611L586 563L494 471Q531 419 531 350T495 228L586 137L538 89L447 180Q394 143 324 143T203 180L112
89L64 137L155 228ZM266 483T229 445T191 350T228 254T325 215T422 254T459 349T422 444T326 483Z" />
<glyph unicode="&#xa5;" glyph-name="yen" horiz-adv-x="650" d="M92 199V244H252V250L212 339H92V384H192L70 660H20V700H220L378 310L493 555Q464 560 444 582T424 637T447 692T503 715T560 692T584 642T558 563L469 384H562V339H447L400 244H562V199H402V40H502V0H152V40H252V199H92Z"
/>
<glyph unicode="&#xa6;" glyph-name="brokenbar" horiz-adv-x="410" d="M260 800V474H150V800H260ZM260 226V-100H150V226H260Z" />
<glyph unicode="&#xa7;" glyph-name="section" horiz-adv-x="490" d="M308 420Q440 347 440 251T355 113Q420 60 420 -21Q420 -87 372 -132T240 -177Q120 -177 47 -72L82 -46Q112 -90 152 -112T235 -135T312 -108T346 -36Q346 24 280 59L172 118Q40 191 40 287T125
424Q60 476 60 559Q60 625 108 670T240 715Q360 715 433 610L398 584Q368 628 328 650T245 673T168 646T134 574Q134 514 200 479L308 420ZM122 395T103 372T84 317T111 261T193 206L300 149Q310 144 328 132Q357 142 376 166T396 221T369 277T287 332L151 405Q122
395 103 372Z" />
<glyph unicode="&#xa8;" glyph-name="dieresis" horiz-adv-x="490" d="M54 638T54 670T76 724T130 746T184 724T206 670T184 616T130 594T76 616ZM284 638T284 670T306 724T360 746T414 724T436 670T414 616T360 594T306 616Z" />
<glyph unicode="&#xa9;" glyph-name="copyright" horiz-adv-x="812" d="M415 652Q367 652 342 601T317 473T343 348T415 300T487 320T537 374L566 353Q535 304 499 277T405 249Q320 249 267 312T213 470T266 628T415 692Q464 692 510 671T557 622Q557 612 550
596L512 523L483 532L488 576Q490 586 490 603T469 636T415 652ZM106 593T106 469T194 257T406 169T618 257T706 469T618 681T406 769T194 681ZM68 330T68 469T167 707T406 807T645 708T744 469T645 231T406 131T167 230Z" />
<glyph unicode="&#xaa;" glyph-name="ordfeminine" horiz-adv-x="577" d="M457 706V434Q457 400 484 400Q505 400 531 422L550 398Q486 341 433 341Q368 341 353 399H345Q330 373 304 357T248 341Q166 341 124 394T81 528T127 662T255 715Q311 715 343 678L363
706H457ZM271 665Q200 665 200 529T271 392Q307 392 326 429T346 529T327 628T271 665Z" />
<glyph unicode="&#xab;" glyph-name="guillemotleft" horiz-adv-x="486" d="M30 260T30 292T58 350L202 488L226 467L131 296V288L226 117L202 96L58 234Q30 260 30 292ZM230 260T230 292T258 350L402 488L426 467L331 296V288L426 117L402 96L258 234Q230 260 230 292Z" />
<glyph unicode="&#xac;" glyph-name="logicalnot" horiz-adv-x="560" d="M90 320V380H470V167H416V320H90Z" />
<glyph unicode="&#xae;" glyph-name="registered" horiz-adv-x="812" d="M106 593T106 469T194 257T406 169T618 257T706 469T618 681T406 769T194 681ZM237 647V683H373Q576 683 576 548Q576 466 489 431Q518 414 527 383L545 324Q551 301 570 301Q585 301 608
321L626 298Q570 249 515 249T445 295L416 387Q412 400 403 406T373 413V258H237V293H273V647H237ZM373 647V449Q418 449 446 474T475 547T447 621T373 647ZM68 330T68 469T167 707T406 807T645 708T744 469T645 231T406 131T167 230Z" />
<glyph unicode="&#xaf;" glyph-name="overscore" horiz-adv-x="490" d="M98 700H392V612H98V700Z" />
<glyph unicode="&#xb0;" glyph-name="degree" horiz-adv-x="536" d="M81 450T81 529T132 661T268 715T403 662T455 529T404 395T268 341T133 395ZM168 594T168 529T193 423T269 382T345 423T370 529T345 634T269 675T193 635Z" />
<glyph unicode="&#xb1;" glyph-name="plusminus" horiz-adv-x="560" d="M90 320V380H250V540H310V380H470V320H310V160H250V320H90ZM90 0V60H470V0H90Z" />
<glyph unicode="&#xb2;" glyph-name="twosuperior" horiz-adv-x="440" d="M320 331H63V362L204 505Q263 564 263 631Q263 670 241 696T184 722Q169 722 153 718Q175 703 175 679T159 639T122 622T85 638T69 675Q69 716 110 740T214 765T316 732T356 650Q356 625
336 593T299 542T248 491L152 397H234Q269 397 285 406T306 440L312 467H344L361 362Q361 347 355 340T342 332T320 331Z" />
<glyph unicode="&#xb3;" glyph-name="threesuperior" horiz-adv-x="440" d="M159 718Q181 703 181 679T165 638T128 622T91 638T75 675Q75 716 117 740T222 765T323 732T362 650Q362 584 290 546Q326 532 347 506T368 449Q368 395 323 359T215 322T110 346T69
412Q69 433 84 449T121 465T159 449T175 407T152 366Q164 364 172 364Q217 364 241 389T265 448T243 504T178 528H141V564H187Q228 564 249 589T271 647T250 700T190 722Q175 722 159 718Z" />
<glyph unicode="&#xb4;" glyph-name="acute" horiz-adv-x="371" d="M245 751T258 758T291 765T327 751T344 713T326 673T261 632L113 559L92 583L211 715Q228 734 236 742Z" />
<glyph unicode="&#xb5;" glyph-name="mu" horiz-adv-x="707" d="M274 454V46Q444 46 444 147V500H594V111Q594 84 607 69T647 53T709 82L727 58Q647 -15 564 -15T454 59Q416 19 376 3T274 -15V-250H124V467Q69 453 40 418L13 449Q42 479 86 497T174 515T246 498T274 454Z" />
<glyph unicode="&#xb6;" glyph-name="paragraph" horiz-adv-x="548" d="M108 0V40H264V307H204Q113 307 57 366T0 511T56 656T204 715T351 656T408 511V40H478V0H108Z" />
<glyph unicode="&#xb7;" glyph-name="middot" horiz-adv-x="274" d="M60 260T60 292T82 346T137 369T191 347T214 292T192 238T137 215T83 237Z" />
<glyph unicode="&#xb8;" glyph-name="cedilla" horiz-adv-x="330" d="M195 -70Q242 -70 271 -97T300 -165T266 -235T182 -265T102 -247T70 -196Q70 -179 82 -167T110 -155T139 -167T152 -199T134 -231Q142 -233 149 -233Q178 -233 195 -215T213 -173T194 -129T140
-110L118 -93L162 0H192L154 -77Q171 -70 195 -70Z" />
<glyph unicode="&#xb9;" glyph-name="onesuperior" horiz-adv-x="363" d="M249 756V366H325V331H60V366H148V668Q99 649 35 649V684Q91 684 139 704T214 756H249Z" />
<glyph unicode="&#xba;" glyph-name="ordmasculine" horiz-adv-x="536" d="M81 450T81 529T132 661T268 715T403 662T455 529T404 395T268 341T133 395ZM199 594T199 529T216 423T269 382T321 423T339 529T322 634T269 675T217 635Z" />
<glyph unicode="&#xbb;" glyph-name="guillemotright" horiz-adv-x="486" d="M456 324T456 292T428 234L284 96L260 117L355 288V296L260 467L284 488L428 350Q456 324 456 292ZM256 324T256 292T228 234L84 96L60 117L155 288V296L60 467L84 488L228 350Q256
324 256 292Z" />
<glyph unicode="&#xbc;" glyph-name="onequarter" horiz-adv-x="1044" d="M732 700L342 0H302L692 700H732ZM284 700V310H360V275H95V310H183V612Q134 593 70 593V628Q126 628 174 648T249 700H284ZM836 425Q836 340 793 263T689 135H809V252Q861 271 873 316H910V135H945V93H910V35H980V0H733V35H809V93H628V131Q717
213 724 425H836Z" />
<glyph unicode="&#xbd;" glyph-name="onehalf" horiz-adv-x="1044" d="M732 700L342 0H302L692 700H732ZM284 700V310H360V275H95V310H183V612Q134 593 70 593V628Q126 628 174 648T249 700H284ZM903 0H646V31L787 174Q846 233 846 300Q846 339 824 365T767 391Q752
391 736 387Q758 372 758 348T742 308T705 291T668 307T652 344Q652 385 693 409T797 434T899 401T939 319Q939 294 919 262T882 211T831 160L735 66H817Q852 66 868 75T889 109L895 136H927L944 31Q944 16 938 9T925 1T903 0Z" />
<glyph unicode="&#xbe;" glyph-name="threequarters" horiz-adv-x="1044" d="M742 700L352 0H312L702 700H742ZM184 662Q206 647 206 623T190 582T153 566T116 582T100 619Q100 660 142 684T247 709T348 676T387 594Q387 528 315 490Q351 476 372 450T393 393Q393
339 348 303T240 266T135 290T94 356Q94 377 109 393T146 409T184 393T200 351T177 310Q189 308 197 308Q242 308 266 333T290 392T268 448T203 472H166V508H212Q253 508 274 533T296 591T275 644T215 666Q200 666 184 662ZM836 425Q836 340 793 263T689 135H809V252Q861
271 873 316H910V135H945V93H910V35H980V0H733V35H809V93H628V131Q717 213 724 425H836Z" />
<glyph unicode="&#xbf;" glyph-name="questiondown" horiz-adv-x="527" d="M251 137T218 89T185 -19T220 -120T321 -163Q353 -163 378 -152Q351 -145 334 -124T317 -72T341 -18T398 6T454 -17T477 -74Q477 -141 414 -178T260 -215T110 -162T50 -31T102 103T244
181L258 297H312L329 151Q251 137 218 89ZM362 470T362 438T340 384T285 361T231 383T208 438T230 492T285 515T339 493Z" />
<glyph unicode="&#xc0;" glyph-name="Agrave" horiz-adv-x="656" d="M169 660V700H407L606 40H656V0H398V40H456L419 163H147L111 40H169V0H0V40H50L237 660H169ZM282 617L161 208H405L282 617ZM182 936T198 950T234 965T267 958T289 943T315 915L434 783L413
759L265 832Q218 855 200 872T182 913Z" />
<glyph unicode="&#xc1;" glyph-name="Aacute" horiz-adv-x="656" d="M169 660V700H407L606 40H656V0H398V40H456L419 163H147L111 40H169V0H0V40H50L237 660H169ZM282 617L161 208H405L282 617ZM366 951T379 958T412 965T448 951T465 913T447 873T382 832L234
759L213 783L332 915Q349 934 357 942Z" />
<glyph unicode="&#xc2;" glyph-name="Acircumflex" horiz-adv-x="656" d="M169 660V700H407L606 40H656V0H398V40H456L419 163H147L111 40H169V0H0V40H50L237 660H169ZM282 617L161 208H405L282 617ZM278 965T308 965T366 927L474 783L453 759L312 854H304L163
759L142 783L250 927Q278 965 308 965Z" />
<glyph unicode="&#xc3;" glyph-name="Atilde" horiz-adv-x="656" d="M169 660V700H407L606 40H656V0H398V40H456L419 163H147L111 40H169V0H0V40H50L237 660H169ZM282 617L161 208H405L282 617ZM452 809V824Q452 863 424 863Q412 863 401 856L316 808Q284 789
256 789T206 815T183 875T191 942H227V927Q227 888 255 888Q267 888 278 895L363 943Q395 962 423 962T473 936T496 876T488 809H452Z" />
<glyph unicode="&#xc4;" glyph-name="Adieresis" horiz-adv-x="656" d="M169 660V700H407L606 40H656V0H398V40H456L419 163H147L111 40H169V0H0V40H50L237 660H169ZM282 617L161 208H405L282 617ZM128 838T128 870T150 924T204 946T258 924T280 870T258 816T204
794T150 816ZM358 838T358 870T380 924T434 946T488 924T510 870T488 816T434 794T380 816Z" />
<glyph unicode="&#xc5;" glyph-name="Aring" horiz-adv-x="656" d="M169 660V700H407L606 40H656V0H398V40H456L419 163H147L111 40H169V0H0V40H50L237 660H169ZM282 617L161 208H405L282 617ZM253 753T216 785T179 869T216 954T308 987T400 955T437 870T400 785T308
753ZM263 952T263 869T307 786T352 869T308 952Z" />
<glyph unicode="&#xc6;" glyph-name="AE" horiz-adv-x="912" d="M-20 0V40H32L245 660H178V700H781Q803 700 813 699T833 688T842 658L815 490H776L756 589Q747 634 723 647T632 660H562V318H792V273H562V40H652Q717 40 741 53T776 111L796 200H835L862 42Q862
22 853 13T834 2T801 0H352V40H412V273H172L92 40H149V0H-20ZM412 318V660H303L187 318H412Z" />
<glyph unicode="&#xc7;" glyph-name="Ccedilla" horiz-adv-x="650" d="M382 668Q295 668 250 579T205 355T252 136T389 51Q439 51 481 72T544 116T590 174L625 149Q577 72 518 29T365 -15Q351 -15 345 -14L314 -77Q331 -70 355 -70Q402 -70 431 -97T460 -165T426
-235T342 -265T262 -247T230 -196Q230 -179 242 -167T270 -155T299 -167T312 -199T294 -231Q302 -233 309 -233Q338 -233 355 -215T373 -173T354 -129T300 -110L278 -93L316 -11Q197 8 124 109T50 358T138 611T382 715Q463 715 538 683T613 607Q613 590 602 568L542
452L506 463L515 525Q519 549 519 571Q519 610 481 639T382 668Z" />
<glyph unicode="&#xc8;" glyph-name="Egrave" horiz-adv-x="630" d="M519 0H70V40H130V660H70V700H499Q521 700 531 699T551 688T560 658L533 490H494L474 589Q465 634 441 647T350 660H280V318H510V273H280V40H370Q435 40 459 53T494 111L514 200H553L580 42Q580
22 571 13T552 2T519 0ZM189 936T205 950T241 965T274 958T296 943T322 915L441 783L420 759L272 832Q225 855 207 872T189 913Z" />
<glyph unicode="&#xc9;" glyph-name="Eacute" horiz-adv-x="630" d="M519 0H70V40H130V660H70V700H499Q521 700 531 699T551 688T560 658L533 490H494L474 589Q465 634 441 647T350 660H280V318H510V273H280V40H370Q435 40 459 53T494 111L514 200H553L580 42Q580
22 571 13T552 2T519 0ZM342 951T355 958T388 965T424 951T441 913T423 873T358 832L210 759L189 783L308 915Q325 934 333 942Z" />
<glyph unicode="&#xca;" glyph-name="Ecircumflex" horiz-adv-x="630" d="M519 0H70V40H130V660H70V700H499Q521 700 531 699T551 688T560 658L533 490H494L474 589Q465 634 441 647T350 660H280V318H510V273H280V40H370Q435 40 459 53T494 111L514 200H553L580
42Q580 22 571 13T552 2T519 0ZM305 965T335 965T393 927L501 783L480 759L339 854H331L190 759L169 783L277 927Q305 965 335 965Z" />
<glyph unicode="&#xcb;" glyph-name="Edieresis" horiz-adv-x="630" d="M519 0H70V40H130V660H70V700H499Q521 700 531 699T551 688T560 658L533 490H494L474 589Q465 634 441 647T350 660H280V318H510V273H280V40H370Q435 40 459 53T494 111L514 200H553L580
42Q580 22 571 13T552 2T519 0ZM124 838T124 870T146 924T200 946T254 924T276 870T254 816T200 794T146 816ZM354 838T354 870T376 924T430 946T484 924T506 870T484 816T430 794T376 816Z" />
<glyph unicode="&#xcc;" glyph-name="Igrave" horiz-adv-x="410" d="M60 660V700H350V660H280V40H350V0H60V40H130V660H60ZM79 936T95 950T131 965T164 958T186 943T212 915L331 783L310 759L162 832Q115 855 97 872T79 913Z" />
<glyph unicode="&#xcd;" glyph-name="Iacute" horiz-adv-x="410" d="M60 660V700H350V660H280V40H350V0H60V40H130V660H60ZM252 951T265 958T298 965T334 951T351 913T333 873T268 832L120 759L99 783L218 915Q235 934 243 942Z" />
<glyph unicode="&#xce;" glyph-name="Icircumflex" horiz-adv-x="410" d="M60 660V700H350V660H280V40H350V0H60V40H130V660H60ZM175 965T205 965T263 927L371 783L350 759L209 854H201L60 759L39 783L147 927Q175 965 205 965Z" />
<glyph unicode="&#xcf;" glyph-name="Idieresis" horiz-adv-x="410" d="M60 660V700H350V660H280V40H350V0H60V40H130V660H60ZM4 838T4 870T26 924T80 946T134 924T156 870T134 816T80 794T26 816ZM234 838T234 870T256 924T310 946T364 924T386 870T364 816T310
794T256 816Z" />
<glyph unicode="&#xd0;" glyph-name="Eth" horiz-adv-x="782" d="M70 273V318H150V660H70V700H340Q520 700 631 603T742 351T631 98T340 0H70V40H150V273H70ZM340 660H300V318H450V273H300V40H340Q456 40 521 123T587 350T522 576T340 660Z" />
<glyph unicode="&#xd1;" glyph-name="Ntilde" horiz-adv-x="770" d="M60 0V40H120V660H60V700H294L580 137V660H520V700H710V660H650V0H491L190 592V40H250V0H60ZM510 809V824Q510 863 482 863Q470 863 459 856L374 808Q342 789 314 789T264 815T241 875T249 942H285V927Q285
888 313 888Q325 888 336 895L421 943Q453 962 481 962T531 936T554 876T546 809H510Z" />
<glyph unicode="&#xd2;" glyph-name="Ograve" horiz-adv-x="768" d="M50 508T136 611T383 715T631 612T718 350T631 88T384 -15T137 87T50 349ZM384 668Q325 668 284 622Q205 536 205 349Q205 163 284 78Q326 32 384 32Q470 32 516 124T563 349T517 575T384 668ZM238
936T254 950T290 965T323 958T345 943T371 915L490 783L469 759L321 832Q274 855 256 872T238 913Z" />
<glyph unicode="&#xd3;" glyph-name="Oacute" horiz-adv-x="768" d="M50 508T136 611T383 715T631 612T718 350T631 88T384 -15T137 87T50 349ZM384 668Q325 668 284 622Q205 536 205 349Q205 163 284 78Q326 32 384 32Q470 32 516 124T563 349T517 575T384 668ZM411
951T424 958T457 965T493 951T510 913T492 873T427 832L279 759L258 783L377 915Q394 934 402 942Z" />
<glyph unicode="&#xd4;" glyph-name="Ocircumflex" horiz-adv-x="768" d="M50 508T136 611T383 715T631 612T718 350T631 88T384 -15T137 87T50 349ZM384 668Q325 668 284 622Q205 536 205 349Q205 163 284 78Q326 32 384 32Q470 32 516 124T563 349T517 575T384
668ZM354 965T384 965T442 927L550 783L529 759L388 854H380L239 759L218 783L326 927Q354 965 384 965Z" />
<glyph unicode="&#xd5;" glyph-name="Otilde" horiz-adv-x="768" d="M50 508T136 611T383 715T631 612T718 350T631 88T384 -15T137 87T50 349ZM384 668Q325 668 284 622Q205 536 205 349Q205 163 284 78Q326 32 384 32Q470 32 516 124T563 349T517 575T384 668ZM496
809V824Q496 863 468 863Q456 863 445 856L360 808Q328 789 300 789T250 815T227 875T235 942H271V927Q271 888 299 888Q311 888 322 895L407 943Q439 962 467 962T517 936T540 876T532 809H496Z" />
<glyph unicode="&#xd6;" glyph-name="Odieresis" horiz-adv-x="768" d="M50 508T136 611T383 715T631 612T718 350T631 88T384 -15T137 87T50 349ZM384 668Q325 668 284 622Q205 536 205 349Q205 163 284 78Q326 32 384 32Q470 32 516 124T563 349T517 575T384
668ZM193 838T193 870T215 924T269 946T322 924T345 870T323 816T269 794T216 816ZM423 838T423 870T445 924T499 946T552 924T575 870T553 816T499 794T446 816Z" />
<glyph unicode="&#xd7;" glyph-name="multiply" horiz-adv-x="560" d="M147 175L105 217L238 350L105 483L147 525L280 392L413 525L455 483L322 350L455 217L413 175L280 308L147 175Z" />
<glyph unicode="&#xd8;" glyph-name="Oslash" horiz-adv-x="768" d="M718 349Q718 190 631 88T383 -15Q351 -15 311 -8L292 -80H243L265 3Q161 37 106 130T50 349Q50 508 136 611T383 715Q416 715 456 708L475 779H525L502 697Q607 662 662 569T718 349ZM563 349Q563
538 482 624L326 45Q351 32 384 32Q470 32 516 124T563 349ZM384 668Q325 668 284 622Q205 536 205 348T285 76L441 655Q413 668 384 668Z" />
<glyph unicode="&#xd9;" glyph-name="Ugrave" horiz-adv-x="700" d="M485 660V700H675V660H615V241Q615 169 594 117T534 37Q463 -15 357 -15Q251 -15 178 38Q139 65 117 117T95 242V660H35V700H305V660H245V210Q245 132 287 90T390 48T498 90T545 210V660H485ZM224
936T240 950T276 965T309 958T331 943T357 915L476 783L455 759L307 832Q260 855 242 872T224 913Z" />
<glyph unicode="&#xda;" glyph-name="Uacute" horiz-adv-x="700" d="M485 660V700H675V660H615V241Q615 169 594 117T534 37Q463 -15 357 -15Q251 -15 178 38Q139 65 117 117T95 242V660H35V700H305V660H245V210Q245 132 287 90T390 48T498 90T545 210V660H485ZM382
951T395 958T428 965T464 951T481 913T463 873T398 832L250 759L229 783L348 915Q365 934 373 942Z" />
<glyph unicode="&#xdb;" glyph-name="Ucircumflex" horiz-adv-x="700" d="M485 660V700H675V660H615V241Q615 169 594 117T534 37Q463 -15 357 -15Q251 -15 178 38Q139 65 117 117T95 242V660H35V700H305V660H245V210Q245 132 287 90T390 48T498 90T545 210V660H485ZM340
965T370 965T428 927L536 783L515 759L374 854H366L225 759L204 783L312 927Q340 965 370 965Z" />
<glyph unicode="&#xdc;" glyph-name="Udieresis" horiz-adv-x="700" d="M485 660V700H675V660H615V241Q615 169 594 117T534 37Q463 -15 357 -15Q251 -15 178 38Q139 65 117 117T95 242V660H35V700H305V660H245V210Q245 132 287 90T390 48T498 90T545 210V660H485ZM164
838T164 870T186 924T240 946T294 924T316 870T294 816T240 794T186 816ZM394 838T394 870T416 924T470 946T524 924T546 870T524 816T470 794T416 816Z" />
<glyph unicode="&#xdd;" glyph-name="Yacute" horiz-adv-x="607" d="M135 0V40H235V250L53 660H5V700H203L361 308L451 700H602V660H555L385 250V40H485V0H135ZM364 951T377 958T410 965T446 951T463 913T445 873T380 832L232 759L211 783L330 915Q347 934 355 942Z" />
<glyph unicode="&#xde;" glyph-name="Thorn" horiz-adv-x="673" d="M70 660V700H340V660H280V570H290Q536 570 598 457Q623 413 623 350T599 243T527 175Q439 130 290 130H280V40H340V0H70V40H130V660H70ZM290 530H280V170H290Q369 170 421 217T473 350T421 482T290 530Z" />
<glyph unicode="&#xdf;" glyph-name="germandbls" horiz-adv-x="655" d="M552 597Q552 561 530 530T481 479Q410 429 410 390Q410 343 491 302Q525 284 559 264T616 213T640 140Q640 65 592 25T451 -15T297 30L315 61Q357 37 402 37T468 60T490 118T475 181T437
230T392 274Q339 328 339 389Q339 429 379 492T419 591T402 646T351 665T294 625T271 499V0H121V445H39V486H121V489Q121 597 183 656T353 715T506 682T552 597Z" />
<glyph unicode="&#xe0;" glyph-name="agrave" horiz-adv-x="710" d="M597 500V111Q597 84 610 69T650 53T712 82L730 58Q650 -15 570 -15Q475 -15 453 74Q401 -15 300 -15Q185 -15 125 59T65 249T129 440T310 515Q399 515 447 444V500H597ZM220 346T220 250T248
98T333 42T421 98T452 250T422 401T334 458T248 402ZM207 736T223 750T259 765T292 758T314 743T340 715L459 583L438 559L290 632Q243 655 225 672T207 713Z" />
<glyph unicode="&#xe1;" glyph-name="aacute" horiz-adv-x="695" d="M582 500V111Q582 84 595 69T635 53T697 82L715 58Q635 -15 555 -15Q460 -15 438 74Q386 -15 285 -15Q170 -15 110 59T50 249T114 440T295 515Q384 515 432 444V500H582ZM205 346T205 250T233
98T318 42T406 98T437 250T407 401T319 458T233 402ZM412 751T425 758T458 765T494 751T511 713T493 673T428 632L280 559L259 583L378 715Q395 734 403 742Z" />
<glyph unicode="&#xe2;" glyph-name="acircumflex" horiz-adv-x="710" d="M597 500V111Q597 84 610 69T650 53T712 82L730 58Q650 -15 570 -15Q475 -15 453 74Q401 -15 300 -15Q185 -15 125 59T65 249T129 440T310 515Q399 515 447 444V500H597ZM220 346T220 250T248
98T333 42T421 98T452 250T422 401T334 458T248 402ZM305 765T335 765T393 727L501 583L480 559L339 654H331L190 559L169 583L277 727Q305 765 335 765Z" />
<glyph unicode="&#xe3;" glyph-name="atilde" horiz-adv-x="695" d="M582 500V111Q582 84 595 69T635 53T697 82L715 58Q635 -15 555 -15Q460 -15 438 74Q386 -15 285 -15Q170 -15 110 59T50 249T114 440T295 515Q384 515 432 444V500H582ZM205 346T205 250T233
98T318 42T406 98T437 250T407 401T319 458T233 402ZM460 609V624Q460 663 432 663Q420 663 409 656L324 608Q292 589 264 589T214 615T191 675T199 742H235V727Q235 688 263 688Q275 688 286 695L371 743Q403 762 431 762T481 736T504 676T496 609H460Z" />
<glyph unicode="&#xe4;" glyph-name="adieresis" horiz-adv-x="695" d="M582 500V111Q582 84 595 69T635 53T697 82L715 58Q635 -15 555 -15Q460 -15 438 74Q386 -15 285 -15Q170 -15 110 59T50 249T114 440T295 515Q384 515 432 444V500H582ZM205 346T205 250T233
98T318 42T406 98T437 250T407 401T319 458T233 402ZM156 638T156 670T178 724T232 746T286 724T308 670T286 616T232 594T178 616ZM386 638T386 670T408 724T462 746T516 724T538 670T516 616T462 594T408 616Z" />
<glyph unicode="&#xe5;" glyph-name="aring" horiz-adv-x="710" d="M597 500V111Q597 84 610 69T650 53T712 82L730 58Q650 -15 570 -15Q475 -15 453 74Q401 -15 300 -15Q185 -15 125 59T65 249T129 440T310 515Q399 515 447 444V500H597ZM220 346T220 250T248
98T333 42T421 98T452 250T422 401T334 458T248 402ZM290 553T253 585T216 669T253 754T345 787T437 755T474 670T437 585T345 553ZM300 752T300 669T344 586T389 669T345 752Z" />
<glyph unicode="&#xe6;" glyph-name="ae" horiz-adv-x="904" d="M643 180Q588 180 531 192Q540 126 572 87T658 47Q754 47 821 122L849 104Q815 50 759 18T630 -15T501 21T413 117Q394 59 348 22T224 -15T101 29T55 144T109 260T242 305T390 274Q390 406 340 437Q318
451 284 451Q213 451 125 398L105 430Q165 478 216 496T338 515Q436 515 487 466Q555 515 650 515T795 471T845 360T790 237T643 180ZM527 250V226Q560 219 581 219Q648 219 682 263T717 357T698 434T636 461T561 406T527 250ZM278 52Q390 52 390 239Q338 258 293
258T224 228T200 152T221 79T278 52Z" />
<glyph unicode="&#xe7;" glyph-name="ccedilla" horiz-adv-x="562" d="M331 -15Q317 -15 311 -14L280 -77Q297 -70 321 -70Q368 -70 397 -97T426 -165T392 -235T308 -265T228 -247T196 -196Q196 -179 208 -167T236 -155T265 -167T278 -199T260 -231Q268 -233 275
-233Q304 -233 321 -215T339 -173T320 -129T266 -110L244 -93L282 -11Q183 4 124 77T65 256T138 438T330 515Q396 515 459 477T522 374Q522 341 499 318T442 294T386 317T362 371T378 422T420 451Q392 463 356 463Q289 463 255 404T220 253T254 104T356 47Q446
47 509 122L537 104Q504 50 451 18T331 -15Z" />
<glyph unicode="&#xe8;" glyph-name="egrave" horiz-adv-x="597" d="M339 237T374 280T410 368T391 437T332 461T256 405T220 255T254 104T351 47Q447 47 514 122L542 104Q508 50 452 18T326 -15Q207 -15 136 63T65 253T140 439T350 515Q438 515 488 474T538 370T483
254T336 200Q305 200 276 207L274 231Q339 237 374 280ZM192 736T208 750T244 765T277 758T299 743T325 715L444 583L423 559L275 632Q228 655 210 672T192 713Z" />
<glyph unicode="&#xe9;" glyph-name="eacute" horiz-adv-x="597" d="M339 237T374 280T410 368T391 437T332 461T256 405T220 255T254 104T351 47Q447 47 514 122L542 104Q508 50 452 18T326 -15Q207 -15 136 63T65 253T140 439T350 515Q438 515 488 474T538 370T483
254T336 200Q305 200 276 207L274 231Q339 237 374 280ZM363 751T376 758T409 765T445 751T462 713T444 673T379 632L231 559L210 583L329 715Q346 734 354 742Z" />
<glyph unicode="&#xea;" glyph-name="ecircumflex" horiz-adv-x="597" d="M339 237T374 280T410 368T391 437T332 461T256 405T220 255T254 104T351 47Q447 47 514 122L542 104Q508 50 452 18T326 -15Q207 -15 136 63T65 253T140 439T350 515Q438 515 488 474T538
370T483 254T336 200Q305 200 276 207L274 231Q339 237 374 280ZM278 765T308 765T366 727L474 583L453 559L312 654H304L163 559L142 583L250 727Q278 765 308 765Z" />
<glyph unicode="&#xeb;" glyph-name="edieresis" horiz-adv-x="597" d="M339 237T374 280T410 368T391 437T332 461T256 405T220 255T254 104T351 47Q447 47 514 122L542 104Q508 50 452 18T326 -15Q207 -15 136 63T65 253T140 439T350 515Q438 515 488 474T538
370T483 254T336 200Q305 200 276 207L274 231Q339 237 374 280ZM107 638T107 670T129 724T183 746T236 724T259 670T237 616T183 594T130 616ZM337 638T337 670T359 724T413 746T466 724T489 670T467 616T413 594T360 616Z" />
<glyph unicode="&#xec;" glyph-name="igrave" horiz-adv-x="399" d="M192 515Q286 515 286 434V111Q286 84 299 69T339 53T401 82L419 58Q339 -15 259 -15Q136 -15 136 132V467Q81 453 52 418L25 449Q54 479 98 497T192 515ZM73 736T89 750T125 765T158 758T180
743T206 715L325 583L304 559L156 632Q109 655 91 672T73 713Z" />
<glyph unicode="&#xed;" glyph-name="iacute" horiz-adv-x="399" d="M192 515Q286 515 286 434V111Q286 84 299 69T339 53T401 82L419 58Q339 -15 259 -15Q136 -15 136 132V467Q81 453 52 418L25 449Q54 479 98 497T192 515ZM227 751T240 758T273 765T309 751T326
713T308 673T243 632L95 559L74 583L193 715Q210 734 218 742Z" />
<glyph unicode="&#xee;" glyph-name="icircumflex" horiz-adv-x="399" d="M192 515Q286 515 286 434V111Q286 84 299 69T339 53T401 82L419 58Q339 -15 259 -15Q136 -15 136 132V467Q81 453 52 418L25 449Q54 479 98 497T192 515ZM169 765T199 765T257 727L365
583L344 559L203 654H195L54 559L33 583L141 727Q169 765 199 765Z" />
<glyph unicode="&#xef;" glyph-name="idieresis" horiz-adv-x="399" d="M192 515Q286 515 286 434V111Q286 84 299 69T339 53T401 82L419 58Q339 -15 259 -15Q136 -15 136 132V467Q81 453 52 418L25 449Q54 479 98 497T192 515ZM9 638T9 670T31 724T85 746T138
724T161 670T139 616T85 594T32 616ZM239 638T239 670T261 724T315 746T368 724T391 670T369 616T315 594T262 616Z" />
<glyph unicode="&#xf0;" glyph-name="eth" horiz-adv-x="673" d="M270 705Q194 705 133 647L108 721Q186 765 271 765Q380 765 459 689L579 750L598 712L488 656Q590 524 590 293Q590 146 520 66T331 -15T141 57T70 240T137 418T310 485Q396 485 438 427L448 431Q432
543 398 610L274 547L255 585L375 646Q331 705 270 705ZM271 438T243 381T215 234T243 85T328 27T416 85T447 233T417 381T329 438Z" />
<glyph unicode="&#xf1;" glyph-name="ntilde" horiz-adv-x="707" d="M124 500Q206 500 272 450Q310 486 350 500T452 515T554 476T594 368V111Q594 84 607 69T647 53T709 82L727 58Q647 -15 567 -15Q444 -15 444 132V389Q444 420 425 437T373 454T307 427T274
357V0H124V460Q79 460 44 445L30 482Q73 500 124 500ZM466 609V624Q466 663 438 663Q426 663 415 656L330 608Q298 589 270 589T220 615T197 675T205 742H241V727Q241 688 269 688Q281 688 292 695L377 743Q409 762 437 762T487 736T510 676T502 609H466Z" />
<glyph unicode="&#xf2;" glyph-name="ograve" horiz-adv-x="660" d="M65 138T65 250T138 438T330 515T521 439T595 250T522 62T330 -15T139 61ZM220 348T220 250T248 90T331 27T414 89T442 250T414 410T331 473T248 411ZM204 736T220 750T256 765T289 758T311
743T337 715L456 583L435 559L287 632Q240 655 222 672T204 713Z" />
<glyph unicode="&#xf3;" glyph-name="oacute" horiz-adv-x="660" d="M65 138T65 250T138 438T330 515T521 439T595 250T522 62T330 -15T139 61ZM220 348T220 250T248 90T331 27T414 89T442 250T414 410T331 473T248 411ZM395 751T408 758T441 765T477 751T494
713T476 673T411 632L263 559L242 583L361 715Q378 734 386 742Z" />
<glyph unicode="&#xf4;" glyph-name="ocircumflex" horiz-adv-x="660" d="M65 138T65 250T138 438T330 515T521 439T595 250T522 62T330 -15T139 61ZM220 348T220 250T248 90T331 27T414 89T442 250T414 410T331 473T248 411ZM300 765T330 765T388 727L496 583L475
559L334 654H326L185 559L164 583L272 727Q300 765 330 765Z" />
<glyph unicode="&#xf5;" glyph-name="otilde" horiz-adv-x="660" d="M65 138T65 250T138 438T330 515T521 439T595 250T522 62T330 -15T139 61ZM220 348T220 250T248 90T331 27T414 89T442 250T414 410T331 473T248 411ZM442 609V624Q442 663 414 663Q402 663
391 656L306 608Q274 589 246 589T196 615T173 675T181 742H217V727Q217 688 245 688Q257 688 268 695L353 743Q385 762 413 762T463 736T486 676T478 609H442Z" />
<glyph unicode="&#xf6;" glyph-name="odieresis" horiz-adv-x="660" d="M65 138T65 250T138 438T330 515T521 439T595 250T522 62T330 -15T139 61ZM220 348T220 250T248 90T331 27T414 89T442 250T414 410T331 473T248 411ZM139 638T139 670T161 724T215 746T268
724T291 670T269 616T215 594T162 616ZM369 638T369 670T391 724T445 746T498 724T521 670T499 616T445 594T392 616Z" />
<glyph unicode="&#xf7;" glyph-name="divide" horiz-adv-x="560" d="M90 320V380H470V320H90ZM218 496T218 522T236 565T280 583T323 566T341 522T324 478T280 460T236 478ZM218 153T218 179T236 222T280 240T323 222T341 179T324 135T280 117T236 135Z" />
<glyph unicode="&#xf8;" glyph-name="oslash" horiz-adv-x="660" d="M595 250Q595 138 522 62T330 -15Q314 -15 284 -11L238 -181H189L237 0Q157 26 111 94T65 250Q65 362 138 438T330 515Q346 515 376 511L421 678H471L422 500Q502 473 548 405T595 250ZM386
27T414 89T442 261T403 430L296 35Q314 27 331 27Q386 27 414 89ZM276 473T248 411T220 239T257 72L363 466Q346 473 331 473Q276 473 248 411Z" />
<glyph unicode="&#xf9;" glyph-name="ugrave" horiz-adv-x="707" d="M274 454V111Q274 80 293 63T346 46T412 74T444 147V500H594V111Q594 84 607 69T647 53T709 82L727 58Q647 -15 564 -15T454 59Q415 18 374 2T268 -15T164 24T124 132V467Q69 453 40 418L13
449Q42 479 86 497T174 515T246 498T274 454ZM207 736T223 750T259 765T292 758T314 743T340 715L459 583L438 559L290 632Q243 655 225 672T207 713Z" />
<glyph unicode="&#xfa;" glyph-name="uacute" horiz-adv-x="707" d="M274 454V111Q274 80 293 63T346 46T412 74T444 147V500H594V111Q594 84 607 69T647 53T709 82L727 58Q647 -15 564 -15T454 59Q415 18 374 2T268 -15T164 24T124 132V467Q69 453 40 418L13
449Q42 479 86 497T174 515T246 498T274 454ZM418 751T431 758T464 765T500 751T517 713T499 673T434 632L286 559L265 583L384 715Q401 734 409 742Z" />
<glyph unicode="&#xfb;" glyph-name="ucircumflex" horiz-adv-x="707" d="M274 454V111Q274 80 293 63T346 46T412 74T444 147V500H594V111Q594 84 607 69T647 53T709 82L727 58Q647 -15 564 -15T454 59Q415 18 374 2T268 -15T164 24T124 132V467Q69 453 40 418L13
449Q42 479 86 497T174 515T246 498T274 454ZM323 765T353 765T411 727L519 583L498 559L357 654H349L208 559L187 583L295 727Q323 765 353 765Z" />
<glyph unicode="&#xfc;" glyph-name="udieresis" horiz-adv-x="707" d="M274 454V111Q274 80 293 63T346 46T412 74T444 147V500H594V111Q594 84 607 69T647 53T709 82L727 58Q647 -15 564 -15T454 59Q415 18 374 2T268 -15T164 24T124 132V467Q69 453 40 418L13
449Q42 479 86 497T174 515T246 498T274 454ZM162 638T162 670T184 724T238 746T292 724T314 670T292 616T238 594T184 616ZM392 638T392 670T414 724T468 746T522 724T544 670T522 616T468 594T414 616Z" />
<glyph unicode="&#xfd;" glyph-name="yacute" horiz-adv-x="627" d="M42 479T86 497T174 515T246 498T274 454V151Q274 119 294 103T344 86Q408 86 453 141T499 282Q499 330 480 383Q462 371 434 371T384 393T361 448T383 502T440 525T498 500T534 432Q552 359
552 271T532 93T478 -60T402 -171Q316 -265 227 -265Q203 -265 188 -255T152 -216L100 -144L126 -117Q174 -125 210 -125Q322 -125 393 -54T505 177Q443 5 277 5Q213 5 169 48T124 172V467Q69 453 40 418L13 449Q42 479 86 497ZM359 751T372 758T405 765T441 751T458
713T440 673T375 632L227 559L206 583L325 715Q342 734 350 742Z" />
<glyph unicode="&#xfe;" glyph-name="thorn" horiz-adv-x="709" d="M409 515Q524 515 584 441T644 251T580 60T399 -15Q313 -15 262 62V-250H111V718Q55 703 27 668L0 699Q29 729 73 747T161 765T233 748T261 704L262 436Q315 515 409 515ZM489 154T489 250T461
402T376 458T288 402T257 250T287 99T375 42T461 98Z" />
<glyph unicode="&#xff;" glyph-name="ydieresis" horiz-adv-x="627" d="M42 479T86 497T174 515T246 498T274 454V151Q274 119 294 103T344 86Q408 86 453 141T499 282Q499 330 480 383Q462 371 434 371T384 393T361 448T383 502T440 525T498 500T534 432Q552
359 552 271T532 93T478 -60T402 -171Q316 -265 227 -265Q203 -265 188 -255T152 -216L100 -144L126 -117Q174 -125 210 -125Q322 -125 393 -54T505 177Q443 5 277 5Q213 5 169 48T124 172V467Q69 453 40 418L13 449Q42 479 86 497ZM121 638T121 670T143 724T197
746T250 724T273 670T251 616T197 594T144 616ZM351 638T351 670T373 724T427 746T480 724T503 670T481 616T427 594T374 616Z" />
<glyph unicode="&#x2013;" glyph-name="endash" horiz-adv-x="500" d="M0 315V375H500V315H0Z" />
<glyph unicode="&#x2014;" glyph-name="emdash" horiz-adv-x="1000" d="M0 315V375H1000V315H0Z" />
<glyph unicode="&#x2018;" glyph-name="quoteleft" horiz-adv-x="274" d="M207 740Q163 689 163 652T188 593T214 537T192 480T137 457T82 482T60 550Q60 662 180 765L207 740Z" />
<glyph unicode="&#x2019;" glyph-name="quoteright" horiz-adv-x="274" d="M67 482Q111 533 111 570T86 629T60 685T82 742T137 765T192 740T214 672Q214 560 94 457L67 482Z" />
<glyph unicode="&#x201a;" glyph-name="quotesinglbase" horiz-adv-x="274" d="M67 -144Q111 -93 111 -56T86 3T60 59T82 116T137 139T192 114T214 46Q214 -66 94 -169L67 -144Z" />
<glyph unicode="&#x201c;" glyph-name="quotedblleft" horiz-adv-x="494" d="M207 740Q163 689 163 652T188 593T214 537T192 480T137 457T82 482T60 550Q60 662 180 765L207 740ZM427 740Q383 689 383 652T408 593T434 537T412 480T357 457T302 482T280 550Q280
662 400 765L427 740Z" />
<glyph unicode="&#x201d;" glyph-name="quotedblright" horiz-adv-x="494" d="M287 482Q331 533 331 570T306 629T280 685T302 742T357 765T412 740T434 672Q434 560 314 457L287 482ZM67 482Q111 533 111 570T86 629T60 685T82 742T137 765T192 740T214 672Q214
560 94 457L67 482Z" />
<glyph unicode="&#x201e;" glyph-name="quotedblbase" horiz-adv-x="494" d="M287 -144Q331 -93 331 -56T306 3T280 59T302 116T357 139T412 114T434 46Q434 -66 314 -169L287 -144ZM67 -144Q111 -93 111 -56T86 3T60 59T82 116T137 139T192 114T214 46Q214 -66
94 -169L67 -144Z" />
<glyph unicode="&#x2022;" glyph-name="bullet" horiz-adv-x="298" d="M60 328T60 365T86 428T149 454T212 428T238 365T212 302T149 276T86 302Z" />
<glyph unicode="&#x2039;" glyph-name="guilsinglleft" horiz-adv-x="286" d="M30 260T30 292T58 350L202 488L226 467L131 296V288L226 117L202 96L58 234Q30 260 30 292Z" />
<glyph unicode="&#x203a;" glyph-name="guilsinglright" horiz-adv-x="286" d="M256 324T256 292T228 234L84 96L60 117L155 288V296L60 467L84 488L228 350Q256 324 256 292Z" />
</font>
</defs>
</svg>
